NEWS YU EX FORUM
Ukoliko se niste registrovali to učinite kako bi mogli videti sve što se nalazi na ovom forumu. Hvala

Filmovi 2011

Strana 2 od 2 Prethodni  1, 2

Pogledaj prethodnu temu Pogledaj sledeću temu Ići dole

Travellers 2011 DVDRIP

Počalji  Admin taj Pet Feb 18, 2011 2:51 pm

[You must be registered and logged in to see this image.]
Travellers 2011 DVDRIP Xvid-DiVERSiTY

:love: Four friends set out on a motorcycle adventure weekend, clocking up miles in an attempt to outrun their age and urban lifestyles. After bartering with a local land owner for a place to set up camp, they spend the night reminiscing over their wasted youth. The following morning they spot an ominous looking caravan, and decide to investigate. Within minutes, an idiotic prank leads to a series of brutal events and a deadly race for survival. A modern plunge back into the worlds created by movies such as �Deliverance� and �Southern Comfort� but with a gritty British twang. Kidnap, murder and a hidden past are just some of the reasons these four adventurers should have stayed at home. An action thriller that will make you question who the villains really are. You cant outrun what�s in your blood.

Genre: Thriller
IMDB rating: 6.2/10 (11 votes)
Directed by: Kris McManus
Starring: Shane Sweeney, Tom Geoffrey and Alex Edwards

Release Name: Travellers 2011 DVDRIP Xvid-DiVERSiTY
Size: 700MB
Quality: 640�272, 1874 kbps, MP3 128 kbps
Runtime: 84 minutes
Filename: Travellers 2011.avi


[You must be registered and logged in to see this image.]
avatar
Admin
Admin

Broj poruka : 1441
Datum upisa : 05.10.2010

Pogledaj profil korisnika http://yugoforum.forumsr.com

Nazad na vrh Ići dole

The Mechanic (2011)

Počalji  Admin taj Pet Feb 18, 2011 2:50 pm

The Mechanic (2011)
93 min - Action | Drama | Thriller - 28 January 2011 (USA)

[You must be registered and logged in to see this image.]



Download links:



or



or

avatar
Admin
Admin

Broj poruka : 1441
Datum upisa : 05.10.2010

Pogledaj profil korisnika http://yugoforum.forumsr.com

Nazad na vrh Ići dole

The Eagle 2011 TS XViD

Počalji  Admin taj Pet Feb 18, 2011 2:49 pm

The Eagle 2011 TS XViD – IMAGiNE
[You must be registered and logged in to see this image.]
[You must be registered and logged in to see this link.]
Quote:
The Eagle 2011 TS XViD – IMAGiNE
English | Gaelic | 114 MIN | 1.3 GB
Director:Kevin Macdonald
Writers: Jeremy Brock, Rosemary Sutcliff
Stars: Channing Tatum, Jamie Bell and Donald Sutherland
Genres: Adventure
Quote:
In Roman-ruled Britain, a young Roman soldier endeavors to honor his father\s memory by finding his lost legion\s golden emblem

[You must be registered and logged in to see this image.]

avatar
Admin
Admin

Broj poruka : 1441
Datum upisa : 05.10.2010

Pogledaj profil korisnika http://yugoforum.forumsr.com

Nazad na vrh Ići dole

The Dilemma (2011)

Počalji  Admin taj Pet Feb 18, 2011 2:47 pm

The Dilemma (2011)
[You must be registered and logged in to see this image.]
Codec ID : XVID
Codec ID/Hint : XviD
Duration : 1h 42mn
Bit rate : 1 786 Kbps
Width : 688 pixels
Height : 384 pixels
Display aspect ratio : 16:9
Frame rate : 25.000 fps
Color space : YUV
Chroma subsampling : 4:2:0
Bit depth : 8 bits
Scan type : Progressive
Bits/(Pixel*Frame) : 0.270
Stream size : 1.28 GiB (87%)
Writing library : XviD 61

ID : 1
Format : AC-3
Format/Info : Audio Coding 3
Mode extension : CM (complete main)
Codec ID : 2000
Duration : 1h 42mn
Bit rate mode : Constant
Bit rate : 256 Kbps
Channel(s) : 2 channels
Channel positions : Front: L R
Sampling rate : 48.0 KHz
Bit depth : 16 bits
Stream size : 188 MiB (12%)
Alignment : Aligned on in

Download links:

avatar
Admin
Admin

Broj poruka : 1441
Datum upisa : 05.10.2010

Pogledaj profil korisnika http://yugoforum.forumsr.com

Nazad na vrh Ići dole

The Sunset

Počalji  Admin taj Pet Feb 18, 2011 2:44 pm

The Sunset[2011]Limited HDRip XviD-RG
[You must be registered and logged in to see this image.]
Rating: 8.5/10
Release Date: 12 February 2011(USA)
Director: Tommy Lee Jones

Cast:
Genre: Drama
Language: English
[You must be registered and logged in to see this image.]
avatar
Admin
Admin

Broj poruka : 1441
Datum upisa : 05.10.2010

Pogledaj profil korisnika http://yugoforum.forumsr.com

Nazad na vrh Ići dole

Filmovi 2011

Počalji  Admin taj Sub Jan 29, 2011 3:06 pm

Spartacus: Gods of the Arena [2011][HDTV-XviD]
[You must be registered and logged in to see this image.]
PLOT:
Before Spartacus struck down his first opponent in the arena, there were many gladiators
who passed though the gates onto the sand.'Spartacus: Gods of the Arena' tells the
story of the original Champion of the House of Batiatus: Gannicus in a more ruthless
time before Spartacus' arrival where honor was just finding it's way into the arena.

Genre: Action | Adventure | Biography
IMDB: Spartacus: Gods of the Arena (TV Series 2011) - IMDb

Episode 01 | HDTV XviD-SYS |Hotfile & Fileserve

Download:

Kod:
Hotfile:
http://hotfile.com/dl/100350982/ca6c5d7/fwint.com__spartacus.gods.of.the.arena.part2.hdtv.xvid-fever.avi.html

http://hotfile.com/dl/100347624/ea6fb66/fwint.com_spartacus.gods.of.the.arena.pt2.hdtv.xvid-fever.avi.html

Fileserve:
http://www.fileserve.com/file/Twq4CMJ/spartacus.gods.of.the.arena.pt2.hdtv.xvid-fever.avi

Bitshare:
http://bitshare.com/files/z3t2qb6u/spartacus.gods.of.the.arena.pt2.hdtv.xvid-fever.avi.html
avatar
Admin
Admin

Broj poruka : 1441
Datum upisa : 05.10.2010

Pogledaj profil korisnika http://yugoforum.forumsr.com

Nazad na vrh Ići dole

Re: Filmovi 2011

Počalji  Sponsored content


Sponsored content


Nazad na vrh Ići dole

Strana 2 od 2 Prethodni  1, 2

Pogledaj prethodnu temu Pogledaj sledeću temu Nazad na vrh

- Similar topics

 
Dozvole ovog foruma:
Ne možete odgovarati na teme u ovom forumu